Battleship (2012) DVDRip XviD-MAXSPEED

seeders: 146
leechers: 33
Added on Aug 2, 2012 by piratepedia680.26K in Movies
Torrent verified. Downloaded 10 times.

Download Fast Safe Anonymous
movies, software, shows...
Battleship (2012) DVDRip XviD-MAXSPEED (Size: 1.31 GB)
  Battleship (2012) DVDRip XviD-MAXSPEED www.torentz.3xforum.ro.avi 1.31 GB
  sample.avi 3.85 MB
  screencaps.jpeg 540.83 KB
  Battleship (2012) DVDRip XviD-MAXSPEED.nfo 3.39 KB
  Torrent downloaded from Demonoid.me.txt 46 bytes
  Torrent downloaded from extratorrent.to.txt 40 bytes
  Torrent downloaded from Rarbg.com.txt 33 bytes
  torrent downloaded from H33T.com.txt 32 bytes

Description

http://www.torentz.3xforum.ro/post/2795/1/Battleship_2012_DVDRip_XviD-MAXSPEED/
.
image
.
Screens:
.
image
image
image
image
.
Alternative:
.
http://www.postimg.com/image/78000/photo-77476.jpg
http://www.postimg.com/image/78000/photo-77477.jpg
http://www.postimg.com/image/78000/photo-77478.jpg
http://www.postimg.com/image/78000/photo-77479.jpg

.
ScreenCaps:
.
image
.
Battleship (2012) DVDRip XviD-MAXSPEED
Format : AVI
Format/Info : Audio Video Interleave
Format profile : OpenDML
Format settings : rec
File size : 1.31 GiB
Duration : 2h 6mn
Overall bit rate : 1 482 Kbps
Writing application : VirtualDubMod 1.5.10.2 (build 2542/release)
Writing library : VirtualDubMod build 2542/release
Original source form : MAX TORRENTZ
Copyright : SIGISMUNT
.
Video
ID : 0
Format : MPEG-4 Visual
Format profile : Advanced Simple@L5
Format settings, BVOP : 2
Format settings, QPel : No
Format settings, GMC : No warppoints
Format settings, Matrix : Default (MPEG)
Muxing mode : Packed bitstream
Codec ID : XVID
Codec ID/Hint : XviD
Duration : 2h 6mn
Bit rate : 1 157 Kbps
Width : 640 pixels
Height : 256 pixels
Display aspect ratio : 2.500
Frame rate : 25.000 fps
Color space : YUV
Chroma subsampling : 4:2:0
Bit depth : 8 bits
Scan type : Progressive
Compression mode : Lossy
Bits/(Pixel*Frame) : 0.282
Stream size : 1.02 GiB (78%)
Writing library : XviD 1.2.1 (UTC 2008-12-04)
.
Audio
ID : 1
Format : AC-3
Format/Info : Audio Coding 3
Mode extension : CM (complete main)
Format settings, Endianness : Big
Codec ID : 2000
Duration : 2h 6mn
Bit rate mode : Constant
Bit rate : 320 Kbps
Channel(s) : 6 channels
Channel positions : Front: L C R, Side: L R, LFE
Sampling rate : 48.0 KHz
Bit depth : 16 bits
Compression mode : Lossy
Stream size : 288 MiB (22%)
Alignment : Aligned on interleaves
Interleave, duration : 64 ms (1.60 video frames)
Interleave, preload duration : 192 ms
.
Source: DVD (perfect a/v/sync quality,sample included)
This torrent is not seedbox supported,please seed it to the MAX
.
Note:If you have something to offer as early releases,seedboxes,
links,accounts,etc please contact us on torentz 3xforum ro
.
How To Get Your Maxspeed (uTorrent)
.
Torrent Client - Preferences - Bandwidth - Number of connections - Set aprox. 500 for each
Torrent Client - Preferences - BiTorrent - Protocol Encryption - Forced
Bandwidth Allocation - High (Set download/upload limit - Unlimited)
Stop Other Active Torrents - Start downloading and wait for connections.
Enjoy and Seed for at least 1:1 ratio. Don't forget to say thanks/leave reviews.
Before downloading you should check/google search sample "release name""sample".
Greets to all actual/future p2p/scene QUALITY groups and affiliate websites.
Don't trust IMDb robot or bad ratings,always watch some trailers first.
Ignore stupid comments/fake/mislabeled/no-DVDrips/CAM/TS/RAR uploads.
Please spread this release/torrent to your friends/forums/etc.
If you need translation subs visit some subtitles sites.
Report if you see online streaming or other spam links.
Recommended movie player VLC PLAYER.

Related Torrents

torrent name size files age seed leech

Sharing Widget


Download torrent
1.31 GB
seeders:146
leechers:33
Battleship (2012) DVDRip XviD-MAXSPEED

Trackers

tracker name Status checked seeders leechers downloads
udp://tracker.openbittorrent.com:80/announce
active 26 Aug 2014 105 19 10
udp://tracker.istole.it:80/announce
active 26 Aug 2014 146 33 10
udp://tracker.publicbt.com:80/announce
active 26 Aug 2014 102 22 10
udp://tracker.1337x.org:80/announce
outdated 17 Jan 2014 - - -
udp://tracker.seedceo.com:2710/announce
blocked 17 Jan 2014 - - -
http://exodus.desync.com:6969/announce
blocked 17 Jan 2014 - - -
udp://fr33domtracker.h33t.com:3310/announce
deleted 17 Jan 2014 - - -
ĀµTorrent compatible trackers list

Locations

name
KickassTorrents
Torrent hash: 8AC73565DC5A5DDD698695CD9482CEE360B50E59

Top Comments

12
anonymous • 04 Aug 2012, 06:08
audio: 10video: 10
Just finished watching on my PS3 works well, great copy A/10 V/10 Thank you again keep up the great work MAXSPEED.
6
andre2323493 • 02 Aug 2012, 20:15
torrent downloaded
Its good from its piratepedia
4
anonymous • 02 Sep 2012, 18:15
u dummy comment on the movie quality not on your computer skills

All Comments

audio
9/10
video
9/10
please, leave only comments related to that torrent
or sign-in
0
manolisv13373 • 29 August 2014, 16:15
torrent downloaded
Show comment
audio: 10video: 10
thx! awesome effects!
0
SJack4442304 • 15 June 2014, 16:28
torrent downloaded
Show comment
audio: 10video: 10
0
nil20baker1164 • 27 April 2014, 06:45
torrent downloaded
Show comment
audio: 9video: 9
0
anonymous • 02 April 2014, 05:34 Show comment
audio: 10video: 10
good print.thankx
0
Suren_Rocky547 • 25 March 2014, 01:36
torrent downloaded
Show comment
audio: 9video: 9
Very good audio & video quality.. Great download for 1.3 GB size!smile
Thanks uploader
0
Origen1119 • 23 March 2014, 00:55
torrent downloaded
Show comment
audio: 9video: 9
Thanks!
0
MysticSoul2438 • 17 February 2014, 11:50 Show comment
audio: 10video: 9
piratepedia680.26K you are the best
Thanks for up
0
anonymous • 14 February 2014, 09:39 Show comment
thank you very much
0
caribgal167 • 31 January 2014, 21:44
torrent downloaded
Show comment
thanks piratepedia
Show More

User Opinions

stebo2922, Siimple1830, markozlatni1300, toxictoadz1243, beanhead69751, blackhawk184, -=SIDHU=-161, eyoizzzzz120, debz67, antiqa20 ... And 1878 more
thundr1085, juanobanano1053, Tariq_Mahmood584, rodhoser397, seringas279, notty_alf242, ahmetcn158, shady00791, joanofark0643, jainso3125 ... And 45 more
Report a bug
ew');